<?xml version="1.0" standalone="no"?>
<!DOCTYPE svg PUBLIC "-//W3C//DTD SVG 1.1//EN" "http://www.w3.org/Graphics/SVG/1.1/DTD/svg11.dtd" >
<svg xmlns="http://www.w3.org/2000/svg">
<metadata>
This is a custom SVG font generated by IcoMoon.
<iconset grid="16"></iconset>
</metadata>
<defs>
<font id="runner2" horiz-adv-x="512" >
<font-face units-per-em="512" ascent="480" descent="-32" />
<missing-glyph horiz-adv-x="512" />
<glyph class="hidden" unicode="&#xf000;" d="M0,480L 512 -32L0 -32 z" horiz-adv-x="0" />
<glyph unicode="&#x22;" d="M 89.312,159.136L 327.488,397.312l 101.904-101.904L 191.216,57.232L 89.312,159.136z
	 M 338.448,339.872l-11.168,11.152L 135.584,159.344l 11.168-11.168L 338.448,339.872z M 360.784,317.536l-11.168,11.168L 157.92,136.992l 11.152-11.152
	L 360.784,317.536z M 383.12,295.2l-11.168,11.168L 180.256,114.672l 11.168-11.168L 383.12,295.2z M 373.104,442.304
	c 12.496,12.528, 32.72,12.608, 45.12,0.208l 56.192-56.192c 12.4-12.4, 12.32-32.608-0.192-45.12l-34.72-34.72l-101.12,101.12L 373.104,442.304z
	 M 81.472,145.872l 96.48-96.48L 93.408,19.36l-41.968,41.968L 81.472,145.872z M 77.392,14.128l-49.056-17.872l 17.872,49.056L 77.392,14.128z" data-tags="pencil, write, writing, blog, edit" />
<glyph unicode="&#x23;" d="M 402.286,197.429l0-74 q0-34 -24.143-58.143t-58.143-24.143l-237.714,0 q-34,0 -58.143,24.143t-24.143,58.143l0,237.714 q0,34 24.143,58.143t 58.143,24.143l 72.857,0 l0,0 q 3.714,0 6.429-2.714t 2.714-6.429q0-7.714 -7.429-9.143q-22-7.429 -38-17.143q-2.857-1.143 -4.571-1.143l-32,0 q-18.857,0 -32.286-13.429t-13.429-32.286l0-237.714 q0-18.857 13.429-32.286t 32.286-13.429l 237.714,0  q 18.857,0 32.286,13.429t 13.429,32.286l0,61.143 q0,5.429 5.143,8.286q 8,3.714 15.429,10.571q 4.571,4.571 10,2.286q 6-2.571 6-8.286zM 470,339.143l-109.714-109.714q-5.143-5.429 -12.857-5.429q-3.429,0 -7.143,1.429q-11.143,4.857 -11.143,16.857l0,54.857 l-45.714,0 q-92.286,0 -125.143-37.429q-34-39.143 -21.143-135.143q 0.857-6.571 -5.714-9.714q-2.286-0.571 -3.429-0.571q-4.571,0 -7.429,3.714q-2.857,4 -6,8.857t-11.286,19.571t-14.143,28.429 t-11,32.571t-5,34.857q0,14 1,26t 4,25.714t 8,25.143t 13.429,23.286t 19.571,21.143t 27,17.571t 35.571,13.857t 45.571,8.714t 56.143,3.143l 45.714,0 l0,54.857 q0,12 11.143,16.857q 3.714,1.429 7.143,1.429q 7.429,0 12.857-5.429l 109.714-109.714q 5.429-5.429 5.429-12.857t-5.429-12.857z" horiz-adv-x="475.429" data-tags="share" />
<glyph unicode="&#x24;" d="M 277.5,471l 100-81.5q 6-5.5 6.25-14.75t-3.75-16t-9.5-6.75l-50.5,0 l0-64 q0-13 -9.25-22.5t-22.75-9.5l-64,0 q-13.5,0 -22.75,9.5t -9.25,22.5l 0,64 l-50,0 q-6,0 -10,6.75t -3.75,16t 6.25,14.75l 99.5,81.5q 9,9 21.75,9t 21.75-9zM 128,288.25q0-13.25 -9.5-22.75t-22.75-9.5t-22.5-9.25t-9.25-22.75l0-160 
q0-13 9.25-22.5t 22.75-9.5l 320,0 q 13,0 22.5,9.5t 9.5,22.5l 0,160 q 0,13.5 -9.5,22.75t -22.75,9.25t -22.5,9.5t -9.25,22.75t 9.25,22.5t 22.75,9.25l 32,0 q 26.5,0 45.25-18.75t 18.75-45.25l0-224 q0-26.5 -18.75-45.25t-45.25-18.75l-384,0 q-26.5,0 -45.25,18.75t -18.75,45.25l 0,224 q 0,26.5 18.75,45.25t 45.25,18.75l 32,0 
q 13,0 22.5-9.25t 9.5-22.5z" data-tags="exit" />
<glyph unicode="&#x25;" d="M 0,32l0,224 q0,26.5 18.75,45.25t 45.25,18.75l 32,0 q 13.5,0 22.75-9.5t 9.25-22.75t -9.25-22.5t -22.5-9.25t -22.75-9.5t -9.5-22.5l 0-160 q 0-13.5 9.5-22.75t 22.5-9.25l 320,0 q 13.5,0 22.75,9.25t 9.25,22.75l0,160 q0,13 -9.25,22.5t-22.5,9.5t-22.75,9.25t-9.5,22.5t 9.5,22.75t 22.5,9.5l 32,0 q 26.5,0 45.25-18.75t 18.75-45.25
l 0-224 q 0-26.5 -18.75-45.25t -45.25-18.75l-384,0 q-26.5,0 -45.25,18.75t-18.75,45.25zM 234.5,265l-100,81.5q-6,6 -6.25,15t 3.75,16t 9.5,7l 50.5,0 l0,63.5 q0,13.5 9.25,22.75t 22.75,9.25l 64,0 q 13.5,0 22.75-9.25t 9.25-22.75l 0-63.5 l 50,0 q 6,0 10-7t 3.75-16t -6.25-15l -99.5-81.5q -9-8.5 -21.75-8.5t-21.75,8.5
z" data-tags="enter" />
<glyph unicode="&#x26;" d="M 64-32l 384,0 q 26.5,0 45.25,18.75t 18.75,45.25l0,384 q0,26.5 -18.75,45t -45.25,18.5l -288,0 l 64-63.5l 192,0 q 13.5,0 22.75-9.5t 9.25-22.5l0-320 q0-13.5 -9.5-22.75t -22.5-9.25l -320,0 q -13.5,0 -22.75,9.25t -9.25,22.75l0,192 l -64,64l0-288 q0-26.5 18.75-45.25t 45.25-18.75zM 352,200l -72-72l 104-32zM 248,152
l 80,79.5l -239.5,240q -8.5,8 -20.25,8t -20.25-8l -39.5-40q -8-8 -8.25-19.75t 8.25-20.25z" data-tags="uniF47C" />
<glyph unicode="&#x27;" d="M 32-32L 480-32 c 17.672,0 32,14.312 32,32L 512,448 C 512,465.688, 497.672,480, 480,480l -320,0 l 64-64L 448,416 
	l0-384 l -384,0 L 64,256 l -64,64l0-320 C 0-17.688, 14.328-32, 32-32z M 384,96l0,96 L 96,480l -32,0 l -64-64l0-32 L 288,96L 384,96 z M 240,208L 64,384l 32,32
	L 272,240L 240,208z M 320,192l 32-32l0-32 l -32,0 l -32,32L 320,192z" data-tags="compose, write, blog, edit" />
<glyph unicode="&#x28;" d="M 338.688,223.969l 132.563-133q 8.75-8.75 8.75-20.781t-8.75-20.344l-41.125-41.125q-8.313-8.75 -20.563-8.75t-20.563,8.75l-133,132.563l-133-132.563q-8.313-8.75 -20.563-8.75t-20.563,8.75l-41.125,41.125q-8.75,8.313 -8.75,20.344t 8.75,20.781l 132.563,133l-132.563,132.563q-8.75,8.75 -8.75,20.781t 8.75,20.781l 41.125,41.125q 8.313,8.313 20.563,8.313t 20.563-8.313l 133-133l 133,133q 8.313,8.313 20.563,8.313t 20.563-8.313
l 41.125-41.125q 8.75-8.75 8.75-20.781t-8.75-20.781z" data-tags="multiply" />
<glyph unicode="&#x29;" d="M 64-32l 384,0 q 26.5,0 45.25,18.75t 18.75,45.25l0,384 q0,26.5 -18.75,45.25t -45.25,18.75l -224,0 l0-64 l 192,0 q 13.5,0 22.75-9.5t 9.25-22.5l0-320 q0-13.5 -9.25-22.75t -22.75-9.25l -320,0 q -13.5,0 -22.75,9.25t -9.25,22.75l0,151 l -64,53.5l0-236.5 q0-26.5 18.75-45.25t 45.25-18.75zM 164,196.5q 6.5-6.5 17.25-4
t 10.75,9.5l0,86 q 112,0 192-160l0,32 q0,58 -15,102t -41.5,70t -60.5,39t -75,13l0,85 q0,7 -10.75,9.75t -17.25-3.75l -157-123q -6.5-6.5 -6.5-16t 6.5-16.5z" data-tags="uniF47D" />
<glyph unicode="&#x2a;" d="M 249.363,455.352c 0.235,0.088, 0.469,0.117, 0.645,0.205c 5.016,1.965, 10.384,3.109, 16.075,3.109s 11.059-1.144, 16.075-3.109
		c 0.205-0.088, 0.44-0.117, 0.645-0.205c 5.456-2.229, 10.355-5.515, 14.432-9.621l 146.608-146.608c 17.189-17.189, 17.189-45.027,0-62.216
		s-45.027-17.189-62.216,0L 310.083,308.451L 310.083,33.312 C 310.083,9.024, 290.371-10.688, 266.083-10.688S 222.083,9.024, 222.083,33.312l0,275.139 L 150.539,236.877c-17.189-17.189-45.027-17.189-62.216,0
		C 79.699,245.472, 75.416,256.736, 75.416,268s 4.283,22.528, 12.877,31.123l 146.608,146.608C 239.008,449.837, 243.907,453.123, 249.363,455.352z" data-tags="arrow-down, download, bottom" />
<glyph unicode="&#x2b;" d="M 249.363-7.373c 0.235-0.088, 0.469-0.117, 0.645-0.205c 5.016-1.965, 10.384-3.109, 16.075-3.109s 11.059,1.144, 16.075,3.109
		c 0.205,0.088, 0.44,0.117, 0.645,0.205c 5.456,2.229, 10.355,5.515, 14.432,9.621l 146.608,146.608c 17.189,17.189, 17.189,45.027,0,62.216
		s-45.027,17.189-62.216,0L 310.083,139.528L 310.083,414.667 C 310.083,438.955, 290.371,458.667, 266.083,458.667S 222.083,438.955, 222.083,414.667l0-275.139 L 150.539,211.101c-17.189,17.189-45.027,17.189-62.216,0
		C 79.699,202.507, 75.416,191.243, 75.416,179.979s 4.283-22.528, 12.877-31.123l 146.608-146.608C 239.008-1.859, 243.907-5.144, 249.363-7.373z" data-tags="arrow-down, download, bottom" />
<glyph unicode="&#x2c;" d="M 74.966,42.987c-99.97,99.97-99.97,262.066,0,362.037
	c 100.002,99.97, 262.067,99.97, 362.068,0c 99.97-99.971, 99.97-262.067,0-362.037C 337.033-56.998, 174.968-56.998, 74.966,42.987z
	 M 391.783,359.773c-75.001,74.985-196.565,74.985-271.535,0c-75.001-74.985-75.001-196.55,0-271.535
	c 74.97-74.986, 196.534-74.986, 271.535,0C 466.754,163.224, 466.754,284.788, 391.783,359.773z M 188.124,110.863l-45.251,45.266
	l 67.876,67.877l-67.876,67.876l 45.251,45.267L 256,269.257l 67.877,67.892l 45.25-45.267l-67.876-67.876l 67.876-67.877l-45.25-45.266
	L 256,178.755L 188.124,110.863z" data-tags="close, remove, cancel" />
<glyph unicode="&#x2d;" d="M 256-32q-69.5,0 -128.5,34.25t-93.25,93.25t-34.25,128.5t 34.25,128.5t 93.25,93.25t 128.5,34.25t 128.5-34.25t 93.25-93.25t 34.25-128.5t-34.25-128.5t-93.25-93.25t-128.5-34.25zM 384,240q0,6.5 -4.75,11.25t-11.25,4.75l-224,0 q-6.5,0 -11.25-4.75t-4.75-11.25l0-32 q0-6.5 4.75-11.25t 11.25-4.75l 224,0 
q 6.5,0 11.25,4.75t 4.75,11.25l0,32 z" data-tags="uniF477" />
<glyph unicode="&#x2e;" d="M 256,480C 114.625,480,0,365.375,0,224c0-141.391, 114.625-256, 256-256
			c 141.391,0, 256,114.609, 256,256C 512,365.375, 397.391,480, 256,480z M 256,32c-106.031,0-192,85.969-192,192S 149.969,416, 256,416
			c 106.047,0, 192-85.969, 192-192S 362.047,32, 256,32z M 128,192l 256,0 l0,64 L 128,256 L 128,192 z" data-tags="subtract, remove, delete, minus" />
<glyph unicode="&#x2f;" d="M 448-32l-384,0 q-26.5,0 -45.25,18.75t-18.75,45.25l0,384 q0,26.5 18.75,45.25t 45.25,18.75l 224,0 l0-64 l-192,0 q-13.5,0 -22.75-9.5t-9.25-22.5l0-320 q0-13.5 9.25-22.75t 22.75-9.25l 320,0 q 13.5,0 22.75,9.25t 9.25,22.75l0,151 l 64,53.5l0-236.5 q0-26.5 -18.75-45.25t-45.25-18.75zM 348,196.5q-6.5-6.5 -17.25-4
t-10.75,9.5l0,86 q-112,0 -192-160l0,32 q0,58 15,102t 41.5,70t 60.5,39t 75,13l0,85 q0,7 10.75,9.75t 17.25-3.75l 157-123q 6.5-6.5 6.5-16t-6.5-16.5z" data-tags="uniF47D" />
<glyph unicode="&#x30;" d="M 480-32L 32-32 c-17.672,0-32,14.312-32,32L0,448 C0,465.688, 14.328,480, 32,480l 320,0 l-64-64L 64,416 
	l0-384 l 384,0 L 448,256 l 64,64l0-320 C 512-17.688, 497.672-32, 480-32z M 128,96l0,96 L 416,480l 32,0 l 64-64l0-32 L 224,96L 128,96 z M 272,208L 448,384l-32,32
	L 240,240L 272,208z M 192,192l-32-32l0-32 l 32,0 l 32,32L 192,192z" data-tags="compose, write, blog, edit" />
<glyph unicode="&#x31;" d="M 448-32l-384,0 q-26.5,0 -45.25,18.75t-18.75,45.25l0,384 q0,26.5 18.75,45t 45.25,18.5l 288,0 l-64-63.5l-192,0 q-13.5,0 -22.75-9.5t-9.25-22.5l0-320 q0-13.5 9.5-22.75t 22.5-9.25l 320,0 q 13.5,0 22.75,9.25t 9.25,22.75l0,192 l 64,64l0-288 q0-26.5 -18.75-45.25t-45.25-18.75zM 160,200l 72-72l-104-32zM 264,152
l-80,79.5l 239.5,240q 8.5,8 20.25,8t 20.25-8l 39.5-40q 8-8 8.25-19.75t-8.25-20.25z" data-tags="uniF47C" />
<glyph unicode="&#x32;" d="M 128,160L 384,160L 384,96L 128,96zM 128,256L 384,256L 384,192L 128,192zM 480,480L 32,480 C 14.312,480,0,465.688,0,448l0-448 c0-17.688, 14.312-32, 32-32l 448,0 c 17.688,0, 32,14.312, 32,32L 512,448 
		C 512,465.688, 497.688,480, 480,480z M 448,32L 64,32 L 64,416 l 384,0 L 448,32 zM 128,352L 384,352L 384,288L 128,288z" data-tags="menu, list, options, nav" />
<glyph unicode="&#x33;" d="M 160,96l 64,0 L 224,256 L 160,256 L 160,96 z M 352,384L 352,416 c0,35.328-28.672,64-64,64L 224,480 C 188.672,480, 160,451.328, 160,416l0-32 L0,384 l0-32 
			c0-17.664, 14.336-32, 32-32l0-288 c0-35.328, 28.672-64, 64-64l 320,0 c 35.328,0, 64,28.672, 64,64L 480,320 c 17.696,0, 32,14.336, 32,32L 512,384 L 352,384 z M 224,416l 64,0 l0-32 L 224,384 L 224,416 z M 416,64
			c0-17.696-14.304-32-32-32L 128,32 c-17.664,0-32,14.304-32,32L 96,288 c0,17.664, 14.336,32, 32,32l 256,0 c 17.696,0, 32-14.336, 32-32L 416,64 z M 288,96l 64,0 L 352,256 L 288,256 L 288,96 z" data-tags="trash, bin, delete, remove, can" />
<glyph unicode="&#x34;" d="M 448,480L 256,480 C 220.672,480, 192,451.328, 192,416l0-192 c0-35.328, 28.672-64, 64-64l 192,0 c 35.328,0, 64,28.672, 64,64L 512,416 
			C 512,451.328, 483.328,480, 448,480z M 448,256c0-17.696-14.304-32-32-32L 288,224 C 270.304,224, 256,238.304, 256,256L 256,384 c0,17.664, 14.304,32, 32,32l 128,0 c 17.696,0, 32-14.336, 32-32L 448,256 z M 256,64
			c0-17.696-14.304-32-32-32L 96,32 c-17.696,0-32,14.304-32,32L 64,192 c0,17.696, 14.304,32, 32,32l 32,0 L 128,288 L 64,288 C 28.672,288,0,259.328,0,224l0-192 c0-35.328, 28.672-64, 64-64l 192,0 
			c 35.328,0, 64,28.672, 64,64l0,64 L 256,96 L 256,64 z" data-tags="popup, gallery" />
<glyph unicode="&#x35;" d="M 448-32l-384,0 q-26.5,0 -45.25,18.75t-18.75,45.25l0,384 q0,26.5 18.75,45t 45.25,18.5l 288,0 l-64-63.5l-192,0 q-13.5,0 -22.75-9.5t-9.25-22.5l0-320 q0-13.5 9.5-22.75t 22.5-9.25l 320,0 q 13.5,0 22.75,9.25t 9.25,22.75l0,192 l 64,64l0-288 q0-26.5 -18.75-45.25t-45.25-18.75zM 160,200l 72-72l-104-32zM 264,152
l-80,79.5l 239.5,240q 8.5,8 20.25,8t 20.25-8l 39.5-40q 8-8 8.25-19.75t-8.25-20.25z" data-tags="uniF47C" />
<glyph unicode="&#x36;" d="M 416,480l-64,0 l0-64 l 64,0 L 416,480 z M 480,480l-32,0 l0-96 L 320,384 L 320,480 L 192,480 l0-96 L 64,384 L 64,480 L 32,480 C 14.312,480,0,465.672,0,448
			l0-448 c0-17.688, 14.312-32, 32-32l 448,0 c 17.688,0, 32,14.312, 32,32L 512,448 C 512,465.672, 497.688,480, 480,480z M 448,32L 64,32 L 64,320 l 384,0 L 448,32 z M 160,480L 96,480 
			l0-64 l 64,0 L 160,480 z M 288,256l-64,0 l0-64 l 64,0 L 288,256 z M 384,256l-64,0 l0-64 l 64,0 L 384,256 z M 192,160l-64,0 l0-64 l 64,0 L 192,160 z M 192,256l-64,0 l0-64 l 64,0 L 192,256 z M 288,160l-64,0 l0-64 l 64,0 
			L 288,160 z M 384,160l-64,0 l0-64 l 64,0 L 384,160 z" data-tags="calendar, date, schedule, time" />
<glyph unicode="&#x37;" d="M 448,432L 196.64,203.36L 96,304L0,208L 192,16L 512,368 z" data-tags="checkmark, tick" />
<glyph unicode="&#x38;" d="M 19.427,292.286q0-6.865 5.017-11.882l 135.184-135.184q 5.017-5.017 11.882-5.017t 11.882,5.017t 5.017,11.882l0,67.591 l 59.143,0 q 25.875,0 46.337-1.584t 40.661-5.677t 35.116-11.221t 27.855-18.35t 21.123-26.667t 12.806-36.568t 4.62-47.789q0-14.521 -1.32-32.475q0-1.584 -0.66-6.205t -0.66-6.997q0-3.961 2.245-6.601t 6.205-2.641q 4.225,0 7.393,4.489q 1.848,2.377 3.432,5.809 t 3.565,7.921t 2.772,6.337q 33.532,75.249 33.532,119.078q0,52.542 -13.993,87.922q -42.773,106.404 -231.027,106.404l -59.143,0 l0,67.591 q0,6.865 -5.017,11.882t -11.882,5.017t -11.882-5.017l -135.184-135.184q -5.017-5.017 -5.017-11.882z" data-tags="share-alt, arrow, forward" />
<glyph unicode="&#x39;" d="M 380.931-32C 437.794,71.016, 447.375,228.153, 224,222.912L 224,96 L 32,288L 224,480l0-124.186 
	C 491.481,362.785, 521.285,119.707, 380.931-32z" />
<glyph unicode="&#x3a;" d="M 288,355.814L 288,480 l 192-192L 288,96L 288,222.912 C 64.625,228.153, 74.206,71.016, 131.070-32
	C-9.286,119.707, 20.52,362.785, 288,355.814z" />
<glyph unicode="&#x3b;" d="M 496.131,44.302L 374.855,147.449c-12.537,11.283-25.945,16.463-36.776,15.963C 366.707,196.946, 384,240.451, 384,288
	C 384,394.039, 298.039,480, 192,480C 85.962,480,0,394.039,0,288c0-106.039, 85.961-192, 192-192c 47.549,0, 91.054,17.293, 124.588,45.922
	c-0.5-10.831, 4.68-24.239, 15.963-36.776l 103.147-121.276c 17.661-19.623, 46.511-21.277, 64.11-3.678S 515.754,26.641, 496.131,44.302z
	 M 192,160c-70.692,0-128,57.308-128,128S 121.308,416, 192,416s 128-57.308, 128-128S 262.693,160, 192,160z" />
<glyph unicode="&#x3c;" d="M 432,480 C 476.182,480 512,444.183 512,400 C 512,381.99 506.045,365.371 496,352 L 464,320 L 352,432 L 384,464 C 397.371,474.045 413.989,480 432,480 ZM 32,112L0-32l 144,32l 296,296L 328,408L 32,112z M 357.789,298.211l-224-224l-27.578,27.578l 224,224L 357.789,298.211z" />
<glyph unicode="&#x3d;" d="M 507.331,68.67c-0.002,0.002-0.004,0.004-0.006,0.005L 352.003,224l 155.322,155.325c 0.002,0.002, 0.004,0.003, 0.006,0.005
		c 1.672,1.673, 2.881,3.627, 3.656,5.708c 2.123,5.688, 0.912,12.341-3.662,16.915L 433.952,475.326c-4.574,4.573-11.225,5.783-16.914,3.66
		c-2.080-0.775-4.035-1.984-5.709-3.655c0-0.002-0.002-0.003-0.004-0.005L 256.001,320L 100.677,475.325
		c-0.002,0.002-0.003,0.003-0.005,0.005c-1.673,1.671-3.627,2.88-5.707,3.655c-5.69,2.124-12.341,0.913-16.915-3.66L 4.676,401.951
		c-4.574-4.574-5.784-11.226-3.661-16.914c 0.776-2.080, 1.985-4.036, 3.656-5.708c 0.002-0.001, 0.003-0.003, 0.005-0.005L 160.001,224
		L 4.676,68.674c-0.001-0.002-0.003-0.003-0.004-0.005c-1.671-1.673-2.88-3.627-3.657-5.707c-2.124-5.688-0.913-12.341, 3.661-16.915
		l 73.374-73.373c 4.575-4.574, 11.226-5.784, 16.915-3.661c 2.080,0.776, 4.035,1.985, 5.708,3.656c 0.001,0.002, 0.003,0.003, 0.005,0.005
		l 155.324,155.325l 155.324-155.325c 0.002-0.001, 0.004-0.003, 0.006-0.004c 1.674-1.672, 3.627-2.881, 5.707-3.657
		c 5.689-2.123, 12.342-0.913, 16.914,3.661l 73.373,73.374c 4.574,4.574, 5.785,11.227, 3.662,16.915
		C 510.212,65.043, 509.003,66.997, 507.331,68.67z" />
<glyph unicode="&#x3e;" d="M 432,416L 192,176L 80,288L0,208L 192,16L 512,336 z" />
<glyph unicode="&#x3f;" d="M 482.768,359.328l-5.024-5.024l-91.616,91.664l 5.008,5.008c0,0, 21.936,29.008, 53.136,29.008
	c 13.744,0, 29.312-5.648, 45.584-21.92C 543.52,404.4, 482.768,359.328, 482.768,359.328z M 447.664,324.208L 135.744,12.144l0-0.016 l-0.032-0.016L 135.68,12.112 L0-32
	l 44.096,135.744l0,0 l0,0.016l0,0.048l 0.032,0 L 356.064,415.888l 4.032-4.048 M 44.16,12.176l 67.792,19.504l-46.304,49.312L 44.16,12.176z" />
<glyph unicode="&#x40;" d="M 507.296,365.872l-45.424,45.424c-6.288,6.288-16.416,6.288-22.704,0L 206.928,166.112
	l-133.12,133.184c-6.352,6.352-16.656,6.352-23.008,0l-46.016-46.048c-6.352-6.336-6.352-16.64,0-23.008l 189.328-193.728
	c 3.664-3.68, 8.64-4.944, 13.424-4.32c 4.944-0.736, 10.096,0.512, 13.888,4.32L 507.296,343.152C 513.568,349.424, 513.568,359.6, 507.296,365.872z" />
<glyph unicode="&#x41;" d="M 491.536,371.616l-147.152-148.048l 147.152-147.168c 6.16-6.144, 6.16-16.112,0-22.272
	l-66.816-66.8c-6.128-6.16-16.096-6.16-22.256,0l-146.912,146.912l-146.032-146.912c-6.144-6.16-16.112-6.16-22.272,0l-66.8,66.8
	c-6.144,6.16-6.144,16.128,0,22.272l 146.032,146.912L 20.464,369.328c-6.144,6.144-6.144,16.112,0,22.272l 66.8,66.8
	c 6.144,6.16, 16.112,6.16, 22.272,0l 145.76-145.76l 147.184,148.048c 6.16,6.16, 16.128,6.16, 22.256,0l 66.816-66.8
	C 497.68,387.728, 497.68,377.76, 491.536,371.616z" />
<glyph unicode="&#x42;" d="M 287.376,288.736L 287.376,448 L 512,224L 287.376,0L 287.376,160.672 C 173.216,160.672, 60.544,140.8,0,46.496
	C 6.304,218.352, 134.88,259.264, 287.376,288.736z" />
<glyph unicode="&#x43;" d="M 322.128,480C 217.504,480, 132.368,394.88, 132.368,290.192c0-25.056, 5.12-48.816, 13.936-70.688L0,73.184L 105.12-32l 146.368,146.432
	c 21.872-8.88, 45.632-14, 70.624-14c 104.688,0, 189.872,85.12, 189.872,189.728C 512,394.88, 426.816,480, 322.128,480z M 322.128,164.368
	c-69.312,0-125.808,56.496-125.808,125.792c0,69.376, 56.496,125.872, 125.808,125.872c 69.44,0, 125.936-56.496, 125.936-125.872
	C 448.064,220.88, 391.568,164.368, 322.128,164.368z" />
<glyph unicode="&#x44;" d="M 512,288L 320,288L 320,480L 192,480L 192,288L0,288L0,160L 192,160L 192-32L 320-32L 320,160L 512,160 	z" />
<glyph unicode="&#x45;" d="M 272,480l-48-48l 48-48L 160,256L 48,256 l 88-88L0-12.308L0-32 l 19.692,0 L 200,104l 88-88L 288,128 l 128,112l 48-48l 48,48L 272,480z M 224,208l-32,32
	l 112,112l 32-32L 224,208z" />
<glyph unicode="&#x46;" d="M 73.373,169.373l 160-160c 12.496-12.497, 32.758-12.497, 45.255,0l 160,160c 12.496,12.497, 12.496,32.758,0,45.255
	c-12.497,12.497-32.758,12.497-45.255,0L 288,109.255L 288,416 c0,17.673-14.327,32-32,32s-32-14.327-32-32l0-306.745 L 118.627,214.628
	C 112.379,220.876, 104.189,224, 96,224s-16.379-3.124-22.627-9.372C 60.876,202.131, 60.876,181.87, 73.373,169.373z" />
<glyph unicode="&#x47;" d="M 438.627,278.627l-160,160c-12.496,12.497-32.757,12.497-45.254,0l-160-160c-12.497-12.497-12.497-32.758,0-45.255
	c 12.497-12.498, 32.758-12.498, 45.255,0L 224,338.745L 224,32 c0-17.673, 14.327-32, 32-32c 17.673,0, 32,14.327, 32,32L 288,338.745 l 105.373-105.373
	C 399.621,227.124, 407.811,224, 416,224s 16.379,3.124, 22.627,9.373C 451.124,245.87, 451.124,266.13, 438.627,278.627z" />
<glyph unicode="&#x48;" d="M 203.376,64.56c-105.248-83.84-133.632-63.568-85.136,60.912C-16.96,118.496-27.808,151.376, 85.712,224
	c-113.52,72.64-102.672,105.488, 32.528,98.544C 69.76,447.008, 98.144,467.312, 203.376,383.44c 35.072,128.736, 70.16,128.736, 105.248,0
	c 105.232,83.872, 133.632,63.568, 85.12-60.896c 135.216,6.944, 146.048-25.904, 32.528-98.544c 113.52-72.624, 102.688-105.504-32.528-98.528
	c 48.496-124.464, 20.112-144.752-85.12-60.912C 273.552-64.192, 238.448-64.192, 203.376,64.56z" />
<glyph unicode="&#x49;" d="M 288,205.255 L 342.627,150.627 L 297.373,105.373 L 224,178.745 L 224,288 L 288,288 ZM 416,448 C 469.020,448 512,405.020 512,352 C 512,319.508 495.855,290.791 471.154,273.421 C 447.859,334.943 398.943,383.859 337.421,407.154 C 354.791,431.855 383.509,448 416,448 ZM 174.579,407.154 C 113.057,383.859 64.141,334.943 40.846,273.421 C 16.145,290.791 0,319.508 0,352 C 0,405.020 42.98,448 96,448 C 128.492,448 157.209,431.855 174.579,407.154 ZM 256,384C 149.961,384, 64,298.039, 64,192c0-46.337, 16.416-88.839, 43.747-122.010L 96-32l 32,0 l 32,57.69l-0.004,0.004
		C 188.238,9.355, 221.025,0, 256,0c 34.974,0, 67.76,9.355, 96.002,25.693L 352,25.691L 384-32l 32,0 l-11.751,101.984
		C 431.583,103.157, 448,145.66, 448,192C 448,298.039, 362.039,384, 256,384z M 256,64c-70.692,0-128,57.308-128,128s 57.308,128, 128,128
		s 128-57.308, 128-128S 326.692,64, 256,64z" />
<glyph unicode="&#x4a;" d="M 448,416l-48,0 l0-16 c0-17.645-14.355-32-32-32s-32,14.355-32,32L 336,416 L 176,416 l0-16 c0-17.645-14.355-32-32-32s-32,14.355-32,32L 112,416 L 64,416 
		c-17.6,0-32-14.4-32-32l0-352 c0-17.6, 14.4-32, 32-32l 384,0 c 17.6,0, 32,14.4, 32,32L 480,384 C 480,401.6, 465.6,416, 448,416z M 448,32.058
		c-0.017-0.020-0.038-0.041-0.058-0.058L 64.057,32 c-0.020,0.017-0.041,0.038-0.057,0.058L 64,320 l 384,0 L 448,32.058 zM 144,384c 8.836,0, 16,7.164, 16,16L 160,464 c0,8.836-7.164,16-16,16s-16-7.164-16-16l0-64 C 128,391.164, 135.164,384, 144,384zM 368,384c 8.836,0, 16,7.164, 16,16L 384,464 c0,8.836-7.164,16-16,16s-16-7.164-16-16l0-64 C 352,391.164, 359.164,384, 368,384zM 288,288L 128,288L 128,256L 256,256L 256,192L 128,192L 128,160L 256,160L 256,96L 128,96L 128,64L 288,64 	zM 352,64L 384,64L 384,288L 320,288L 320,256L 352,256 	zM 436-12L 76-12 c-17.6,0-32,10.4-32,28l0-16 c0-17.6, 14.4-32, 32-32l 360,0 c 17.6,0, 32,14.4, 32,32l0,16 C 468-1.6, 453.6-12, 436-12z" />
<glyph unicode="&#x4b;" d="M 192.768,208.624c-2.848-4.112-6.32-14.416-10.432-16.944c-4.112-2.512-8.752-4.272-13.904-5.248
	c-5.168-0.992-10.512-1.424-16.032-1.264l0-24.432 l 39.472,0 L 191.872,64 l 31.856,0 l0,159.936 l-25.344,0 C 197.488,217.84, 195.616,212.736, 192.768,208.624z M 368,352l 32,0 
	c 8.848,0, 16,7.168, 16,16L 416,464 c0,8.832-7.152,16-16,16l-32,0 c-8.848,0-16-7.168-16-16l0-96 C 352,359.168, 359.152,352, 368,352z M 112,352l 32,0 c 8.832,0, 16,7.168, 16,16L 160,464 
	c0,8.832-7.168,16-16,16L 112,480 C 103.168,480, 96,472.832, 96,464l0-96 C 96,359.168, 103.168,352, 112,352z M 480,416l-32,0 l0-80 c0-8.832-7.152-16-16-16l-96,0 c-8.848,0-16,7.168-16,16L 320,416 l-128,0 l0-80 
	c0-8.832-7.168-16-16-16L 80,320 c-8.832,0-16,7.168-16,16L 64,416 L 32,416 C 14.336,416,0,401.664,0,384l0-384 c0-17.664, 14.336-32, 32-32l 448,0 c 17.664,0, 32,14.336, 32,32L 512,384 
	C 512,401.664, 497.664,416, 480,416z M 480,16c0-8.848-7.152-16-16-16L 48,0 c-8.832,0-16,7.152-16,16L 32,272 c0,8.832, 7.168,16, 16,16l 416,0 c 8.848,0, 16-7.168, 16-16L 480,16 z
	 M 255.76,192.288l 79.488,0 c-14.976-18.432-27.024-37.2-36.24-59.28c-9.2-22.096-10.208-45.088-11.984-68.992l 34.096,0 
	c 0.144,10.656-3.12,22.16-0.816,34.496c 2.336,12.336, 5.632,24.512, 9.872,36.56c 4.272,12.032, 9.568,23.376, 15.936,34.032
	c 6.336,10.672, 13.648,19.664, 21.872,26.976l0,27.872 l-112.24,0 L 255.744,192.288 z" />
<glyph unicode="&#x4c;" d="M 416,352l-96,0 L 320,384 L 224,480L0,480 l0-384 l 192,0 l0-128 l 320,0 L 512,256 L 416,352z M 416,306.745L 466.745,256L 416,256 L 416,306.745 z M 224,434.745L 274.745,384L 224,384 
	L 224,434.745 z M 32,448l 160,0 l0-96 l 96,0 l0-224 L 32,128 L 32,448 z M 480,0L 224,0 l0,96 l 96,0 L 320,320 l 64,0 l0-96 l 96,0 L 480,0 z" />
<glyph unicode="&#x4d;" d="M0,32L 384,32L 384-32L0-32zM 256,192L 256,480L 128,480L 128,192L 64,192L 192,32L 320,192 		z" horiz-adv-x="384" />
<glyph unicode="&#x4e;" d="M0,480L 384,480L 384,416L0,416zM 128,256L 128-32L 256-32L 256,256L 320,256L 192,416L 64,256 		z" horiz-adv-x="384" />
<glyph unicode="&#x4f;" d="M 512,352c0,70.656-57.376,128-128,128c-47.744,0-88.992-26.528-111.008-65.376c0,0.032, 0.064,0.064, 0.064,0.096
		c-5.872,0.56-11.568,1.776-17.568,1.776c-106.064,0-192-85.936-192-192c0-40.432, 12.624-77.872, 33.936-108.752L0-32l 148.624,96.992
		c 30.56-20.496, 67.312-32.496, 106.88-32.496c 106.064,0, 192,85.936, 192,192c0,5.536-1.12,10.72-1.632,16.128C 485.12,262.496, 512,303.904, 512,352z
		 M 255.504,96.496c-70.624,0-128,57.376-128,128c0,70.592, 57.376,128, 128,128c 0.192,0, 0.368-0.064, 0.496-0.064c0,0.128, 0.064,0.224, 0.064,0.32
		C 256.064,352.496, 256,352.256, 256,352c0-11.12, 1.872-21.68, 4.496-31.968l-50.752-50.784c-24.992-24.992-24.992-65.504,0-90.496s 65.504-24.992, 90.496,0
		l 50.256,50.256c 10.56-2.88, 21.504-4.88, 32.944-4.944C 383.184,153.632, 325.936,96.496, 255.504,96.496z M 384,288c-35.248,0-64,28.72-64,64
		s 28.752,64, 64,64s 64-28.72, 64-64S 419.248,288, 384,288z" />
<glyph unicode="&#x50;" d="M 217.5,246.5q-9.5-9 -9.5-22.25t 9.5-22.75l 225.5-224q 9.5-9.5 23-9.5t 23,9.5l 13.5,13.5q 9.5,9 9.5,22.25t-9.5,22.75l-189.5,188l 189.5,188q 9.5,9.5 9.5,22.75t-9.5,22.75l-13.5,13q-9.5,9.5 -23,9.5t-23-9.5zM 294.5-9q 9.5,9 9.5,22.25t-9.5,22.75l-189.5,188l 189.5,188q 9.5,9.5 9.5,22.75t-9.5,22.75l-13.5,13
q-9.5,9.5 -22.75,9.5t-22.75-9.5l-226-224q-9.5-9 -9.5-22.25t 9.5-22.75l 226-224q 9.5-9.5 22.75-9.5t 22.75,9.5z" data-tags="fastleft" />
<glyph unicode="&#x51;" d="M 448-32l-384,0 q-26.5,0 -45.25,18.75t-18.75,45.25l0,48 q0,13 9.5,22.5t 22.5,9.5t 22.5-9.5t 9.5-22.5l0-16 q0-13.5 9.25-22.75t 22.75-9.25l 320,0 q 13.5,0 22.75,9.25t 9.25,22.75l0,16 q0,13 9.5,22.5t 22.5,9.5t 22.5-9.5t 9.5-22.5l0-48 q0-26.5 -18.75-45.25t-45.25-18.75zM 437.5,288l-117.5,0 l0-160 q0-13.5 -9.25-22.75t-22.75-9.25
l-64,0 q-13.5,0 -22.75,9.25t-9.25,22.75l0,160 l-118,0 q-7.5,0 -9.25,3t 4.25,9.5l 170.5,172.5q 7,7 16.5,7t 16.5-7l 170.5-172.5q 6-6.5 4-9.5t-9.5-3z" data-tags="upload" />
<glyph unicode="&#x52;" d="M 16.917,28.416l 30.165-30.165l 93.547,93.547l-29.376,30.955L 16.917,28.416z M 301.333,458.667C 196.8,458.667, 112,373.888, 112,269.333
			c0-40.939, 13.163-78.72, 35.243-109.717l 35.627-37.547c 32.448-26.176, 73.536-42.091, 118.464-42.091c 104.576,0, 189.333,84.779, 189.333,189.333
			S 405.909,458.667, 301.333,458.667z M 301.333,122.667c-80.875,0-146.667,65.792-146.667,146.667S 220.459,416, 301.333,416S 448,350.208, 448,269.333
			S 382.208,122.667, 301.333,122.667z" data-tags="search, lookup, find, magnifier" />
<glyph unicode="&#x53;" d="M 275.413,467.115L 87.701,132.075l 0.96-0.491l 9.493-150.699l 137.536,68.309l 0.875-0.491l 187.712,335.019L 275.413,467.115z M 129.173,34.133
	l-1.301,75.499l 68.245-38.251L 129.173,34.133z M 220.203,106.752l-74.411,41.707l 114.709,204.736l 74.453-41.685L 220.203,106.752z M 270.912,371.819
	l 20.885,37.227l 74.411-41.707l-20.843-37.205L 270.912,371.819z" data-tags="pencil, edit, write, blog" />
<glyph unicode="&#x54;" d="M 294.784,414.293c-95.701,0-174.827-66.517-186.837-160.277L 26.923,269.696L 106.667,151.744l 117.952,79.68l-74.176,14.357
	c 10.048,60.181, 72.299,125.824, 145.92,125.824c 80.427,0, 146.048-68.928, 146.048-149.376c0-80.448-80.213-145.877-144.213-145.877l0-42.667 c 106.667,0, 186.88,86.336, 186.88,190.293
	S 398.741,414.293, 294.784,414.293z" data-tags="reload, repeat, loop, refresh, rotate" />
<glyph unicode="&#x55;" d="M 85.333,57.6L 192,57.6L 362.667,228.267L 256,334.933L 85.333,164.267 			zM 128,100.267L 128,164.267L 192,100.267 			zM 320,398.933L 426.667,292.267L 384,249.621L 277.333,356.267z" data-tags="pencil, edit, write, blog" />
<glyph unicode="&#x56;" d="M 412.907,133.461l 0.747,0.747l-60.139,60.139c 9.856,19.904, 15.552,42.24, 15.552,65.92c0,82.347-67.008,149.333-149.333,149.333s-149.333-66.987-149.333-149.333s 67.008-149.333, 149.333-149.333
			c 23.68,0, 45.995,5.696, 65.92,15.552l 60.139-60.139l 0.747,0.747C 355.051,58.581, 366.763,53.333, 379.733,53.333c 25.92,0, 46.933,21.013, 46.933,46.933
			C 426.667,113.237, 421.419,124.971, 412.907,133.461z M 219.733,174.933c-47.061,0-85.333,38.272-85.333,85.333s 38.272,85.333, 85.333,85.333s 85.333-38.272, 85.333-85.333S 266.795,174.933, 219.733,174.933z" data-tags="search, magnifier" />
<glyph unicode="&#x57;" d="M 275.413,467.115L 87.701,132.075l 0.96-0.491l 9.493-150.699l 137.536,68.309l 0.875-0.491l 187.712,335.019L 275.413,467.115z M 129.173,34.133
	l-1.301,75.499l 68.245-38.251L 129.173,34.133z M 220.203,106.752l-74.411,41.707l 114.709,204.736l 74.453-41.685L 220.203,106.752z M 270.912,371.819
	l 20.885,37.227l 74.411-41.707l-20.843-37.205L 270.912,371.819z" data-tags="pencil, edit, write, blog" />
<glyph unicode="&#x58;" d="M 512,14.545c0-46.545-46.545-46.545-46.545-46.545l-133.167,133.143C 297.775,76.055, 255.418,61.091, 209.455,61.091
	c-115.689,0-209.455,93.766-209.455,209.455s 93.766,209.455, 209.455,209.455s 209.455-93.766, 209.455-209.455c0-45.964-14.988-88.32-40.076-122.857L 512,14.545z M 209.455,433.455C 119.482,433.455, 46.545,360.518, 46.545,270.545s 72.937-162.909, 162.909-162.909
	s 162.909,72.937, 162.909,162.909S 299.427,433.455, 209.455,433.455z" data-tags="search, magnifier" />
<glyph unicode="&#x59;" d="M 14.176,397.952L 82.048,465.824L 149.92,397.952L 82.048,330.080zM 489.376,58.528L 466.752,81.152L 398.88,13.248L 421.504-9.376L 512-32 	zM 104.704,307.392L 172.544,375.296L 444.128,103.872L 376.288,35.968z" data-tags="pencil, write, blog, edit" />
<glyph unicode="&#x5a;" d="M 324.032,224.064l 178.784-178.848c 12.384-12.384, 12.256-32.544-0.288-45.056l-22.688-22.688
	c-12.544-12.544-32.704-12.672-45.056-0.288L 256,156l-178.752-178.816c-12.384-12.384-32.544-12.256-45.088,0.288l-22.656,22.688
	c-12.544,12.544-12.672,32.672-0.288,45.056l 178.752,178.848L 9.344,402.72C-3.040,415.104-2.912,435.296, 9.6,447.808l 22.656,22.688
	C 44.8,483.040, 64.992,483.168, 77.344,470.816L 256,292.096l 178.656,178.72c 12.352,12.352, 32.544,12.224, 45.056-0.32L 502.4,447.808
	c 12.544-12.544, 12.672-32.704, 0.288-45.088L 324.032,224.064z" data-tags="cancel, close, remove, cross, multiply" />
<glyph unicode="&#x5b;" d="M 497.28,455.36l-27.424,18.88c-15.104,10.432-35.52,6.272-45.664-9.28l-232.096-359.040
	L 74.080,229.024c-12,12.512-31.392,12.512-43.392,0L 8.992,206.4c-12-12.512-12-32.768,0-45.28L 194.24-32l 27.584,0 l 284.64,440.256
	C 516.544,423.84, 512.48,444.928, 497.28,455.36z" data-tags="checkmark, tick" />
<glyph unicode="&#x5c;" d="M 470.32,438.72 C 444,465.008 409.344,480 375.184,480 346.368,480 319.84,469.312 300.464,449.968 l -77.872-78.464 c -0.24-0.224 -0.512-0.368 -0.752-0.608 -0.128-0.128 -0.208-0.304 -0.336-0.416 l 0.032-0.032 -165.264-166.544 c -7.616-7.568 -13.136-16.992 -16.208-27.28 L 2.48,40.496 C 2.448,40.128 0,29.44 0,24 c 0-30.912 25.104-56 56.064-56 6.16,0 18.080,2.944 18.512,3.008 l 135.648,35.664 c 10.304,3.056 19.664,8.624 27.28,16.256 L 481.712,269.056 C 526.128,313.504 521.12,388 470.32,438.72 z M 256.224,99.28 c -1.312,14.432 -5.392,28.592 -11.504,42.032 L 396,292.576 c 9.248-29.216 4.496-59.776 -15.776-80.064 -0.128-0.128 -0.288-0.208 -0.4-0.336 l 0.224-0.208 -123.648-124.64 c 0,3.984 0.192,7.888 -0.176,11.952 z m -19.536,56.624 c -5.968,9.808 -12.752,19.28 -21.152,27.664 -9.776,9.776 -20.992,17.44 -32.704,23.872 L 335.344,359.952 c 11.968-5.312 23.44-12.88 33.568-23.008 8.656-8.624 15.344-18.288 20.496-28.336 z m -68.912,59.104 c -14.816,5.968 -30.336,9.376 -45.888,9.584 L 245.136,348.784 c 18.864,18.4 46.336,23.696 73.392,16.992 z m -25.792-193.2 C 141.6,43.28 132.864,65.616 115.232,83.216 98.56,99.904 76.736,109.536 54.976,110.4 l 15.936,57.712 c 1.152,3.84 3.44,7.632 6.256,10.944 32.096,22.976 81.456,16.192 115.744-18.128 36.272-36.256 41.872-89.376 13.936-121.088 -1.856-0.976 -3.728-1.904 -5.744-2.496 z m 317.072,269.84 -26.944-27.152 c 0,3.616 0.432,7.088 0.096,10.784 C 429.392,306.24 414.96,336.176 391.52,359.584 365.456,385.664 330.896,400.624 296.672,400.72 L 323.168,427.44 C 336.432,440.672 354.944,448 375.184,448 c 25.744,0 52.192-11.648 72.528-31.92 19.088-19.056 30.464-42.736 32.096-66.688 1.504-22.352 -5.872-42.848 -20.752-57.744 z" data-tags="pen" />
<glyph unicode="&#x5d;" d="M 464.384,376.016l-39.472-39.472l-56.368,56.368l 39.472,39.472
	c 15.568,15.568, 40.816,15.568, 56.368,0S 479.952,391.584, 464.384,376.016z M 441.824,330.928c 3.12,3.104, 8.176,3.104, 11.28,0
	c 3.12-3.12, 3.12-8.176,0-11.28l-146.56-146.576c-3.12-3.104-8.176-3.104-11.28,0s-3.104,8.16,0,11.264l 95.84,95.84l-78.944,78.944
	l 33.824,33.808l 78.928-78.928L 441.824,330.928z M 312.176,336.544l 56.368-56.368L 143.040,54.672L 86.672,111.040L 314.080,338.448L 312.176,336.544z
	 M 35.936,3.936l 39.456,95.824l 56.368-56.368L 35.936,3.936z" data-tags="pen, writing, write, blog, edit" />
<glyph unicode="&#x5e;" d="M 218.571,357.429q 2.286,5.429 -1.429,10l-100,109.714q-2.857,2.857 -6.571,2.857q-4,0 -6.857-2.857l-101.429-109.714q-3.714-4.571 -1.429-10q 2.571-5.429 8.286-5.429l 64,0 l0-356.571 q0-4 2.571-6.571t 6.571-2.571l 54.857,0 q 4,0 6.571,2.571t 2.571,6.571l0,356.571 l 64,0 q 6,0 8.286,5.429z" horiz-adv-x="219.429" data-tags="long-arrow-down, arrow, down, bottom" />
<glyph unicode="&#x5f;" d="M 218.571,108.857q 2.286-5.429 -1.429-10l-100-109.714q-2.857-2.857 -6.571-2.857q-4,0 -6.857,2.857l-101.429,109.714q-3.714,4.571 -1.429,10q 2.571,5.429 8.286,5.429l 64,0 l0,356.571 q0,4 2.571,6.571t 6.571,2.571l 54.857,0 q 4,0 6.571-2.571t 2.571-6.571l0-356.571 l 64,0 q 6,0 8.286-5.429z" horiz-adv-x="219.429" data-tags="long-arrow-down, arrow, down, bottom" />
<glyph unicode="&#x60;" d="M 470.32,438.72C 444,465.008, 409.344,480, 375.184,480c-28.816,0-55.344-10.688-74.72-30.032l-77.872-78.464
	c-0.24-0.224-0.512-0.368-0.752-0.608c-0.128-0.128-0.208-0.304-0.336-0.416l 0.032-0.032L 56.272,203.904
	c-7.616-7.568-13.136-16.992-16.208-27.28l-37.584-136.128C 2.448,40.128,0,29.44,0,24C0-6.912, 25.104-32, 56.064-32
	c 6.16,0, 18.080,2.944, 18.512,3.008l 135.648,35.664c 10.304,3.056, 19.664,8.624, 27.28,16.256l 244.208,246.128
	C 526.128,313.504, 521.12,388, 470.32,438.72z M 256.224,99.28c-1.312,14.432-5.392,28.592-11.504,42.032l 151.28,151.264
	c 9.248-29.216, 4.496-59.776-15.776-80.064c-0.128-0.128-0.288-0.208-0.4-0.336l 0.224-0.208l-123.648-124.64
	C 256.4,91.312, 256.592,95.216, 256.224,99.28z M 236.688,155.904c-5.968,9.808-12.752,19.28-21.152,27.664
	c-9.776,9.776-20.992,17.44-32.704,23.872l 152.512,152.512c 11.968-5.312, 23.44-12.88, 33.568-23.008c 8.656-8.624, 15.344-18.288, 20.496-28.336
	L 236.688,155.904z M 167.776,215.008c-14.816,5.968-30.336,9.376-45.888,9.584l 123.248,124.192c 18.864,18.4, 46.336,23.696, 73.392,16.992
	L 167.776,215.008z M 66.672,2.032C 64.928,1.632, 59.504,0.256, 55.824,0C 42.672,0.16, 32,10.848, 32,24
	c 0.192,2.688, 1.264,7.312, 1.632,8.992l 16.848,61.024c 18.288,0.496, 37.968-6.624, 53.44-22.128c 15.712-15.68, 23.104-35.744, 22.304-54.256
	L 66.672,2.032z M 141.984,21.808c-0.384,21.472-9.12,43.808-26.752,61.408C 98.56,99.904, 76.736,109.536, 54.976,110.4l 15.936,57.712
	c 1.152,3.84, 3.44,7.632, 6.256,10.944c 32.096,22.976, 81.456,16.192, 115.744-18.128c 36.272-36.256, 41.872-89.376, 13.936-121.088
	c-1.856-0.976-3.728-1.904-5.744-2.496L 141.984,21.808z M 459.056,291.648l-26.944-27.152c0,3.616, 0.432,7.088, 0.096,10.784
	c-2.816,30.96-17.248,60.896-40.688,84.304c-26.064,26.080-60.624,41.040-94.848,41.136l 26.496,26.72C 336.432,440.672, 354.944,448, 375.184,448
	c 25.744,0, 52.192-11.648, 72.528-31.92c 19.088-19.056, 30.464-42.736, 32.096-66.688C 481.312,327.040, 473.936,306.544, 459.056,291.648z" data-tags="pen, pencil, write, blog" />
<glyph unicode="&#x61;" d="M 320,479.92c-106.032,0-192-85.968-192-192c0-32.416, 8.112-62.928, 22.32-89.728l-133.504-133.472l 0.112-0.096
		C 6.496,54.368,0,40.16,0,24.368c0-31.184, 25.28-56.464, 56.464-56.464c 15.76,0, 29.984,6.496, 40.24,16.944l-0.032,0.032l 133.456,133.44
		c 26.816-14.256, 57.376-22.4, 89.872-22.4c 106.032,0, 192,85.968, 192,192C 512,393.952, 426.032,479.92, 320,479.92z M 76.72,4.848
		c-5.152-5.344-12.288-8.688-20.256-8.688c-15.6,0-28.24,12.624-28.24,28.224c0,7.968, 3.36,15.088, 8.688,20.256l-0.144,0.128l 129.056,129.056
		c 11.28-15.216, 24.72-28.656, 39.904-39.968L 76.72,4.848z M 320,127.904c-88.352,0-160,71.664-160,160c0,88.352, 71.648,160, 160,160
		c 88.336,0, 160-71.648, 160-160C 480,199.568, 408.336,127.904, 320,127.904zM 320,399.92 C 324.4,399.92 328,396.336 328,391.92 C 328,387.504 324.4,383.92 320,383.92 C 266.976,383.92 224,340.928 224,287.92 C 224,283.504 220.416,279.92 216,279.92 C 211.584,279.92 208,283.504 208,287.92 C 208,349.776 258.128,399.92 320,399.92 Z" data-tags="search, magnifier, lookup, find" />
<glyph unicode="&#x62;" d="M 103.714,41.143l 26,26l-67.143,67.143l-26-26l0-30.571 l 36.571,0 l0-36.571 l 30.571,0 zM 253.143,306.286q0,6.286 -6.286,6.286q-2.857,0 -4.857-2l-154.857-154.857q-2-2 -2-4.857q0-6.286 6.286-6.286q 2.857,0 4.857,2l 154.857,154.857q 2,2 2,4.857zM 237.714,361.143l 118.857-118.857l-237.714-237.714l-118.857,0 l0,118.857 zM 432.857,333.714q0-15.143 -10.571-25.714l-47.429-47.429l-118.857,118.857l 47.429,47.143q 10.286,10.857 25.714,10.857 q 15.143,0 26-10.857l 67.143-66.857q 10.571-11.143 10.571-26z" horiz-adv-x="438.857" data-tags="pencil, write, edit, blog" />
<glyph unicode="&#x63;" d="M 16.917,28.416l 30.165-30.165l 93.547,93.547l-29.376,30.955L 16.917,28.416z M 301.333,458.667C 196.8,458.667, 112,373.888, 112,269.333
			c0-40.939, 13.163-78.72, 35.243-109.717l 35.627-37.547c 32.448-26.176, 73.536-42.091, 118.464-42.091c 104.576,0, 189.333,84.779, 189.333,189.333
			S 405.909,458.667, 301.333,458.667z M 301.333,122.667c-80.875,0-146.667,65.792-146.667,146.667S 220.459,416, 301.333,416S 448,350.208, 448,269.333
			S 382.208,122.667, 301.333,122.667z" data-tags="search, lookup, find, magnifier" />
<glyph unicode="&#x64;" d="M 316.288,330.688c 23.040-5.333, 41.376-24.96, 46.709-46.4
	c 1.824-10.027, 10.56-17.6, 21.024-17.6c 11.733,0, 21.333,9.6, 21.333,21.333c0,15.36-12.907,38.72-30.507,56.213c-17.28,17.067-37.867,29.12-54.827,29.12c-11.733,0-21.333-9.92-21.333-21.653
	C 298.688,341.259, 306.261,332.501, 316.288,330.688z M 23.061,51.008c-16.533-16.523-16.533-43.413,0-59.936c 16.533-16.544, 43.413-16.544, 59.84,0
	l 122.549,122.453c 28.597-17.835, 62.293-28.171, 98.56-28.171c 103.147,0, 186.667,83.52, 186.667,186.667c0,103.147-83.52,186.667-186.667,186.667s-186.667-83.52-186.667-186.667
	c0-36.16, 10.357-69.973, 28.171-98.56L 23.061,51.008z M 170.688,272.021c0,73.6, 59.744,133.333, 133.333,133.333c 73.6,0, 133.333-59.733, 133.333-133.333
	s-59.733-133.333-133.333-133.333C 230.432,138.699, 170.688,198.432, 170.688,272.021z" data-tags="search, magnifier, " />
<glyph unicode="&#x65;" d="M 278.5,262.5q -9,9.5 -22.25,9.5t -22.75-9.5l -224-225.5q -9.5-9.5 -9.5-23t 9.5-23l 13.5-13.5q 9-9.5 22.25-9.5t 22.75,9.5l 188,189.5l 188-189.5q 9.5-9.5 22.75-9.5t 22.75,9.5l 13,13.5q 9.5,9.5 9.5,23t -9.5,23zM 23,185.5q 9-9.5 22.25-9.5t 22.75,9.5l 188,189.5l 188-189.5q 9.5-9.5 22.75-9.5t 22.75,9.5l 13,13.5
q 9.5,9.5 9.5,22.75t -9.5,22.75l -224,226q -9,9.5 -22.25,9.5t -22.75-9.5l -224-226q -9.5-9.5 -9.5-22.75t 9.5-22.75z" data-tags="fastleft" />
<glyph unicode="&#x66;" d="M 233.5,185.5q 9-9.5 22.25-9.5t 22.75,9.5l 224,225.5q 9.5,9.5 9.5,23t -9.5,23l -13.5,13.5q -9,9.5 -22.25,9.5t-22.75-9.5l-188-189.5l -188,189.5q -9.5,9.5 -22.75,9.5t-22.75-9.5l-13-13.5q-9.5-9.5 -9.5-23t 9.5-23zM 489,262.5q -9,9.5 -22.25,9.5t-22.75-9.5l-188-189.5l -188,189.5q -9.5,9.5 -22.75,9.5t-22.75-9.5l-13-13.5
q-9.5-9.5 -9.5-22.75t 9.5-22.75l 224-226q 9-9.5 22.25-9.5t 22.75,9.5l 224,226q 9.5,9.5 9.5,22.75t -9.5,22.75z" data-tags="fastleft" />
<glyph unicode="&#x68;" d="M 265.143,233.143l 128,0 q 4,0 6.571,2.571t 2.571,6.571t-2.571,6.571t-6.571,2.571l-128,0 q-4,0 -6.571-2.571t -2.571-6.571t 2.571-6.571t 6.571-2.571zM 164.571,41.143q-7.429,0 -12.857,5.429t-5.429,12.857l0,122.571 l-138,14.571q-3.429,0.571 -5.857,3t-2.429,5.857l0,0.286 q0,7.714 7.714,9.143l 138.571,21.714l0,115.429 q0,7.429 5.429,12.857t 12.857,5.429q 35.143,0 63.286-22.429t 28.143-50.714l 146.286,0 q0,14.857 10.857,25.714 t 25.714,10.857t 25.714-10.857t 10.857-25.714l 0-182.857 q 0-14.857 -10.857-25.714t -25.714-10.857t-25.714,10.857t-10.857,25.714l-146.286,0 q 0-28.286 -28.143-50.714t -63.286-22.429z" data-tags="pushpin" />
<glyph unicode="&#x69;" d="M 89.312,159.136L 327.488,397.312l 101.904-101.904L 191.216,57.232L 89.312,159.136z
	 M 338.448,339.872l-11.168,11.152L 135.584,159.344l 11.168-11.168L 338.448,339.872z M 360.784,317.536l-11.168,11.168L 157.92,136.992l 11.152-11.152
	L 360.784,317.536z M 383.12,295.2l-11.168,11.168L 180.256,114.672l 11.168-11.168L 383.12,295.2z M 373.104,442.304
	c 12.496,12.528, 32.72,12.608, 45.12,0.208l 56.192-56.192c 12.4-12.4, 12.32-32.608-0.192-45.12l-34.72-34.72l-101.12,101.12L 373.104,442.304z
	 M 81.472,145.872l 96.48-96.48L 93.408,19.36l-41.968,41.968L 81.472,145.872z M 77.392,14.128l-49.056-17.872l 17.872,49.056L 77.392,14.128z" data-tags="pencil, write, writing, blog, edit" />
<glyph unicode="&#x6a;" d="M 432,480 C 476.182,480 512,444.183 512,400 C 512,381.99 506.045,365.371 496,352 L 464,320 L 352,432 L 384,464 C 397.371,474.045 413.989,480 432,480 ZM 32,112L0-32l 144,32l 296,296L 328,408L 32,112z M 357.789,298.211l-224-224l-27.578,27.578l 224,224L 357.789,298.211z" data-tags="pencil, write, edit, blog, note" />
<glyph unicode="&#x6b;" d="M 423.962,391.987c-36.915,36.941-64.64,31.411-64.64,31.411L 229.965,294.042L 82.176,146.253L 56.32,24.32l 121.933,25.856l 147.789,147.789l 129.331,129.331
		C 455.373,327.296, 460.928,355.021, 423.962,391.987z M 170.982,64.845l-41.549-8.96c-4.019,7.501-8.858,15.002-17.69,23.859
		c-8.832,8.832-16.358,13.645-23.859,17.664l 8.986,41.574l 12.006,12.006c0,0, 22.63-0.461, 48.154-25.984c 25.549-25.549, 26.010-48.179, 26.010-48.179
		L 170.982,64.845z" data-tags="pencil, write, blog, edit, save" />
<glyph unicode="&#x6c;" d="M 103.714,41.143l 26,26l-67.143,67.143l-26-26l0-30.571 l 36.571,0 l0-36.571 l 30.571,0 zM 253.143,306.286q0,6.286 -6.286,6.286q-2.857,0 -4.857-2l-154.857-154.857q-2-2 -2-4.857q0-6.286 6.286-6.286q 2.857,0 4.857,2l 154.857,154.857q 2,2 2,4.857zM 237.714,361.143l 118.857-118.857l-237.714-237.714l-118.857,0 l0,118.857 zM 432.857,333.714q0-15.143 -10.571-25.714l-47.429-47.429l-118.857,118.857l 47.429,47.143q 10.286,10.857 25.714,10.857 q 15.143,0 26-10.857l 67.143-66.857q 10.571-11.143 10.571-26z" horiz-adv-x="438.857" data-tags="pencil, write, edit, blog" />
<glyph unicode="&#x6d;" d="M 74.992,302.096l 148.592-142.928L 223.584,245.76 c 45.008,0, 159.568-0.992, 159.568-118.816
	c0-61.68-43.744-113.152-101.904-125.056c 93.472,12.672, 165.744,91.952, 165.744,188.896c0,180.096-192.416,181.632-223.408,181.632L 223.584,446.112 L 74.992,302.096
	z" data-tags="reply, arrow, left, undo" />
<glyph unicode="&#x6e;" d="M 448-32l-384,0 q-26.5,0 -45.25,18.75t-18.75,45.25l0,48 q0,13 9.25,22.5t 22.5,9.5t 22.75-9.5t 9.5-22.5l0-16 q0-13.5 9.25-22.75t 22.75-9.25l 320,0 q 13,0 22.5,9.25t 9.5,22.75l0,16 q0,13 9.25,22.5t 22.5,9.5t 22.75-9.5t 9.5-22.5l0-48 q0-26.5 -18.75-45.25t-45.25-18.75zM 272.5,103q-7-7 -16.5-7t-16.5,7l-170.5,172.5
q-6,6.5 -4.25,9.5t 9.25,3l 118,0 l0,160 q0,13.5 9.25,22.75t 22.75,9.25l 64,0 q 13.5,0 22.75-9.25t 9.25-22.75l0-160 l 117.5,0 q 7.5,0 9.5-3t-4-9.5z" data-tags="download" />
<glyph unicode="&#x6f;" d="M 294.5,246.5q 9.5-9 9.5-22.25t -9.5-22.75l -225.5-224q -9.5-9.5 -23-9.5t -23,9.5l -13.5,13.5q -9.5,9 -9.5,22.25t 9.5,22.75l 189.5,188l -189.5,188q -9.5,9.5 -9.5,22.75t 9.5,22.75l 13.5,13q 9.5,9.5 23,9.5t 23-9.5zM 217.5-9q -9.5,9 -9.5,22.25t 9.5,22.75l 189.5,188l -189.5,188q -9.5,9.5 -9.5,22.75t 9.5,22.75l 13.5,13
q 9.5,9.5 22.75,9.5t 22.75-9.5l 226-224q 9.5-9 9.5-22.25t -9.5-22.75l -226-224q -9.5-9.5 -22.75-9.5t -22.75,9.5z" data-tags="fastleft" />
<glyph unicode="&#x70;" d="M 384.453,480  m0,0,c -25.186,0 -48.39-9.368 -65.326-26.352 l -68.058-68.919 c -0.21-0.196 -0.446-0.302 -0.656-0.512 -0.112-0.112 -0.18-0.267 -0.291-0.366 l 0.037-0.037 -11.731-11.895 c -10.788,10.97 -21.566,18.991 -32.025,29.61 l -206.032,0 c -0.005-166.979 -0.6-324.645 0-433.353 170.47-0.086 185.097-0.346 339.614,0 -0.227,102.972 -1.224,101.195 -1.434,185.167 L 477.541,294.764 C 516.363,333.792 511.996,399.229 467.595,443.765 444.59,466.848 414.311,480 384.453,480 z m 0-28.109 c 22.502,0 45.62-10.2 63.394-28 16.684-16.732 26.628-37.529 28.054-58.561 1.314-19.626 -5.138-37.649 -18.144-50.728 l -23.572-23.827 c 0,3.175 0.403,6.234 0.11,9.48 C 431.833,327.439 419.223,353.707 398.735,374.261 375.954,397.16 345.725,410.301 315.812,410.386 L 338.983,433.846 C 350.577,445.465 366.762,451.891 384.453,451.891 z M 23.688,378.103 c 106.111,0 93.511,0 172.987,0 l 25.321-22.802 -116.296-117.744 c -6.657-6.645 -11.488-14.903 -14.173-23.937 L 58.664,94.082 c -0.028-0.324 -2.15-9.717 -2.15-14.494 0-27.143 21.942-49.155 49.003-49.155 5.384,0 15.799,2.579 16.176,2.635 l 118.555,31.33 c 9.006,2.684 17.207,7.573 23.864,14.275 l 50.318,53.074 c 0.194-74.374 0.419-58.988 0.604-139.070 -138.468-0.411 -139.138,1.092 -291.901,1.074 -0.792,187.995 0.473,225.277 0.554,384.352 z m 242.356-67.602 -62.884-63.173 c -12.95,5.24 -26.521,8.236 -40.113,8.418 l 78.624,79.57 16.395,16.616 12.715,12.846 c 11.851,11.612 27.571,17.301 44.267,17.385 6.533,0.033 13.205-0.797 19.857-2.452 L 282.549,327.119 z m 55.561-56.585 -58.221-58.488 c -5.216,8.612 -11.13,16.905 -18.471,24.267 -8.544,8.584 -18.364,15.325 -28.6,20.972 l 59.569,59.843 16.541,16.616 57.201,57.463 c 10.461-4.664 20.476-11.31 29.329-20.204 7.566-7.572 13.422-16.066 17.925-24.888 l -58.439-58.671 z m 9.618-67.455 -50.606-51.241 c 0,3.498 0.176,6.9 -0.146,10.468 -1.147,12.672 -4.713,25.129 -10.056,36.93 l 60.661,60.94 17.269,17.348 54.286,54.535 c 8.083-25.653 3.947-52.496 -13.772-70.31 -0.112-0.112 -0.267-0.181 -0.365-0.293 l 0.182-0.183 -34.174-34.624 z m -170.837,41.066 c 22.123,0.531 46.012-8.872 64.743-27.707 31.704-31.835 36.586-78.48 12.169-106.325 -1.622-0.857 -3.266-1.639 -5.028-2.159 l -51.663-13.652 c -0.336,18.854 -7.979,38.459 -23.391,53.913 -14.572,14.653 -33.627,23.105 -52.647,23.864 l 13.918,50.692 c 1.007,3.372 3.004,6.681 5.465,9.589 10.52,7.565 23.16,11.467 36.434,11.786 zM 168.384,353.906  m0,0,c 0,7.567 0.076,10.663 0.168,6.88 0.093-3.784 0.093-9.975 0-13.758 -0.093-3.784 -0.168-0.688 -0.168,6.88 z" horiz-adv-x="504.11" data-tags="pen_2" />
<glyph unicode="&#x21;" d="M 256,16C 141.136,16, 48,109.12, 48,224S 141.136,432, 256,432c 114.88,0, 208-93.12, 208-208S 370.88,16, 256,16z
	 M 256,64c 35.376,0, 67.984,11.632, 94.48,31.056L 127.072,318.448C 107.616,291.968, 96,259.376, 96,224C 96,135.648, 167.632,64, 256,64z M 256,384
	c-35.648,0-68.464-11.792-95.056-31.52l 223.536-223.552C 404.192,155.536, 416,188.336, 416,224C 416,312.368, 344.368,384, 256,384z" data-tags="blocked, forbidden, denied" />
<glyph unicode="&#x71;" d="M 256,394.667c-94.101,0-170.667-76.565-170.667-170.667s 76.565-170.667, 170.667-170.667s 170.667,76.565, 170.667,170.667S 350.101,394.667, 256,394.667z M 362.667,224c0-17.749-4.779-34.219-12.459-48.96L 207.040,318.208
			C 221.781,325.888, 238.251,330.667, 256,330.667C 314.816,330.667, 362.667,282.816, 362.667,224z M 149.333,224c0,17.749, 4.779,34.219, 12.459,48.96l 143.168-143.168
			C 290.219,122.112, 273.749,117.333, 256,117.333C 197.184,117.333, 149.333,165.184, 149.333,224z" data-tags="cancel, forbidden, denied, blocked" />
<glyph unicode="&#x73;" d="M 213.333,53.333l-138.816,140.928c-20.843,20.843-22.976,54.571-2.133,75.392s 48.171,27.2, 69.013,6.379l 57.472-57.365l 112.875,161.259
					c 16.896,24.107, 50.155,29.995, 74.261,13.099s 29.995-50.155, 13.099-74.261L 213.333,53.333z" data-tags="checkmark, tick" />
<glyph unicode="&#x67;" d="M 228.571,233.143l 0,128 q 0,4 -2.571,6.571t -6.571,2.571t -6.571-2.571t -2.571-6.571l0-128 q0-4 2.571-6.571t 6.571-2.571t 6.571,2.571t 2.571,6.571zM 420.571,132.571q0-7.429 -5.429-12.857t -12.857-5.429l -122.571,0 l -14.571-138q -0.571-3.429 -3-5.857t -5.857-2.429l -0.286,0 q -7.714,0 -9.143,7.714l -21.714,138.571l -115.429,0 q -7.429,0 -12.857,5.429t -5.429,12.857q 0,35.143 22.429,63.286t 50.714,28.143l 0,146.286 q -14.857,0 -25.714,10.857 t -10.857,25.714t 10.857,25.714t 25.714,10.857l 182.857,0 q 14.857,0 25.714-10.857t 10.857-25.714t -10.857-25.714t -25.714-10.857l0-146.286 q 28.286,0 50.714-28.143t 22.429-63.286z" data-tags="pushpin" />
<glyph unicode="&#x75;" d="M 307.143,224q0,3.714 -2.857,6.571l-133.143,133.143q-2.857,2.857 -6.571,2.857t-6.571-2.857l-133.143-133.143q-2.857-2.857 -2.857-6.571t 2.857-6.571l 14.286-14.286q 2.857-2.857 6.571-2.857t 6.571,2.857l 112.286,112.286l 112.286-112.286q 2.857-2.857 6.571-2.857t 6.571,2.857l 14.286,14.286q 2.857,2.857 2.857,6.571zM 307.143,114.286q0,3.714 -2.857,6.571l-133.143,133.143q-2.857,2.857 -6.571,2.857t-6.571-2.857l-133.143-133.143q-2.857-2.857 -2.857-6.571 t 2.857-6.571l 14.286-14.286q 2.857-2.857 6.571-2.857t 6.571,2.857l 112.286,112.286l 112.286-112.286q 2.857-2.857 6.571-2.857t 6.571,2.857l 14.286,14.286q 2.857,2.857 2.857,6.571z" horiz-adv-x="329.143" data-tags="double-angle-down, down, arrows" />
<glyph unicode="&#x76;" d="M 307.143,233.143q0-3.714 -2.857-6.571l-133.143-133.143q-2.857-2.857 -6.571-2.857t-6.571,2.857l-133.143,133.143q-2.857,2.857 -2.857,6.571t 2.857,6.571l 14.286,14.286q 2.857,2.857 6.571,2.857t 6.571-2.857l 112.286-112.286l 112.286,112.286q 2.857,2.857 6.571,2.857t 6.571-2.857l 14.286-14.286q 2.857-2.857 2.857-6.571zM 307.143,342.857q0-3.714 -2.857-6.571l-133.143-133.143q-2.857-2.857 -6.571-2.857t-6.571,2.857l-133.143,133.143q-2.857,2.857 -2.857,6.571 t 2.857,6.571l 14.286,14.286q 2.857,2.857 6.571,2.857t 6.571-2.857l 112.286-112.286l 112.286,112.286q 2.857,2.857 6.571,2.857t 6.571-2.857l 14.286-14.286q 2.857-2.857 2.857-6.571z" horiz-adv-x="329.143" data-tags="double-angle-down, down, arrows" />
<glyph unicode="&#x77;" d="M 160,288L 224,288L 224,224L 160,224zM 256,288L 320,288L 320,224L 256,224zM 352,288L 416,288L 416,224L 352,224zM 64,96L 128,96L 128,32L 64,32zM 160,96L 224,96L 224,32L 160,32zM 256,96L 320,96L 320,32L 256,32zM 160,192L 224,192L 224,128L 160,128zM 256,192L 320,192L 320,128L 256,128zM 352,192L 416,192L 416,128L 352,128zM 64,192L 128,192L 128,128L 64,128zM 416,480l0-32 l-64,0 L 352,480 L 128,480 l0-32 L 64,448 L 64,480 L0,480 l0-512 l 480,0 L 480,480 L 416,480 z M 448,0L 32,0 L 32,352 l 416,0 L 448,0 z" data-tags="calendar, schedule, date, time, day" />
<glyph unicode="&#x74;" d="M 294.641,224.029l 101.528-101.565c 7.032-7.032, 6.961-18.481-0.164-25.585l-12.885-12.885
	c-7.122-7.122-18.571-7.196-25.585-0.164L 256.007,185.377l-101.51-101.547c-7.032-7.032-18.481-6.961-25.603,0.164l-12.867,12.885
	c-7.122,7.122-7.196,18.553-0.164,25.585l 101.51,101.565L 115.937,325.485C 108.904,332.517 108.977,343.984, 116.082,351.089l 12.867,12.885
	C 136.071,371.096, 147.538,371.168, 154.552,364.153L 256.007,262.664l 101.455,101.492c 7.015,7.015, 18.481,6.943, 25.585-0.182L 395.932,351.089
	c 7.122-7.122, 7.196-18.571, 0.164-25.603L 294.641,224.029z" data-tags="cancel, close, remove, cross, multiply" />
<glyph unicode="&#x20;" horiz-adv-x="256" />
</font>
</defs>
</svg>
